&title=Quartet Theme [Reborn]
&artist=COSIO(ZUNTATA/TAITO)「カルテット」
&wholebpm=137
&demo_seek=78.5
&demo_len=13.5
&lv_1=2
&lv_2=3
&lv_3=7
&lv_4=11+
&lv_5=12+
&des_4=譜面-100号
&des_5=はっぴー
&inote_1=(137.0){1},,,,,
{1}1,
{1}1,
{1}2,
{1}2,
{2}8,8,
{2}7,7,
{2}8,8,
{2}1,1,
{1}2-7[2:1],,
{1}7,
{1}8b,
{2}1,1,
{2}2,2,
{2}3,3,
{2}4,4,
{1}3,
{1}2,
{1}1,
{1}8,
{1}8,
{1}1,
{1}2,
{1}3,
{1}2,
{1}2,
{1}1,
{1}1,
{1}8-5[2:1],,
{2}1,1,
{2}2,2,
{1}1h[4:3],,
{1}8h[4:3],,
{1}8,
{1}7,
{1}6,
{1}7b,
{4}8,8,,,
{4}1,1,,,
{2}2,3,
{2}4,3,
{4}2,2,,,
{4}1,1,,,
{2}8,8,
{1}8b,
{4}1,1,,,
{4}8,8,,,
{2}1,2,
{2}3,4,
{4}3,3,,,
{4}2,2,,,
{1}1h[2:1],
{1}8h[2:1],
{2}8,7,
{2}6,5,
{2}6,7,
{2}8,1,
{2}2,3,
{2}4,5,
{2}4,3,
{2}2,1,
{1}1b,
E
&inote_2=(137.0){1},,,
{2}7,7,
{2}8,8b,
{4}1,1,1,,
{4}2,2,2,,
{4}1,1,1,,
{4}8,8,8,,
{1}7h[4:3],
{1}6h[4:3],
{1}7h[4:3],
{1}8h[4:3],
{1}1-4[2:1],,
{1}5-8[2:1],,
{2}1,2,
{2}3,4,
{2}5,6,
{2}7,8b,
{4}1,1,,,
{4}8,8,,,
{4}1,1,,,
{4}2,2,,,
{1}1h[4:3],
{1}8h[4:3],
{2}8,7,
{2}6,5,
{4}6,6,,,
{4}7,7,,,
{4}6,6,,,
{4}5,5,,,
{1}3h[4:3],
{1}2h[4:3],
{1}1-4[2:1],,
{2}4,5,
{2}4,5,
{2}4,3,
{2}2,1,
{2}8,1,
{2}8,1,
{2}8,7,
{4}8,8,,8b,
{1}1h[8:3],
{1}2h[8:3],
{4}1,1,,,
{4}7,7,,,
{4}1,1,,,
{4}3,3,,,
{4}1,1,,,
{4}7,7,,8b,
{1}8h[8:3],
{1}7h[8:3],
{4}8,8,,,
{4}2,2,,,
{4}8,8,,,
{4}6,6,,,
{1}8-5[2:1],,
{2}1,1,
{2}8,8,
{2}7,7,
{2}6,6,
{2}7,8,
{2}1,2,
{2}3,4,
{2}5,6,
{1}7b,
E
&inote_3=(137.0){1},
{4}3,3,,3,
{4},3,,3,
{4},3,,3,
{4}2,1,8,7,
{4}5h[4:1],,4,4,
{4}3h[4:1],,2,2,
{4}1h[4:1],,8,8,
{4}7h[4:1],,6,6,
{4}4/5,3,2,1,
{4}8,7,6,7/2,
{4}1/8,2,3,4,
{4}5,6,7,1b/8b,
{4}1/2h[4:1],,4,6,
{4}8h[4:1],1,2,2/1,
{4}4/3h[4:1],,5,7,
{4}1h[4:1],8,7,7/8,
{4}2h[4:1],3,7h[4:1],6,
{4}6,5,4,3,
{4}2,1/2,7,7/8,
{4}2,1/2,7,7b/8b,
{8}8h[4:1],,7,7,,6-3[8:3],,,
{8},,,,,1,2,8,
{8}7,,4,5,,1,8,1h[8:5],
{8},,,,,,3,3,
{8}3,,5,5,,7-2[8:3],,,
{8},,,,,,1,8,
{8}7h[8:3],,,6,,5,,4h[8:7],
{4},,,3,
{8}2h[4:1],,1,1,,8-5[8:3],,,
{8},,,,,6,5,4,
{8}3,,6,7,,1,2,3h[8:5],
{8},,,,,,4,4,
{4}4,5,6,7,
{8}8,,1,,8,1h[4:1],,8,
{16},,,,1,,,,1,,,1b/2b,,,,,
{16},,8,,,8,,,7,,,7b/8b,,,,,
{4}1/3,2h[4:1],,2,
{4}3/5,4h[4:1],,4,
{4}5/7,6h[4:1],,6,
{4}6/8,7h[833:208],,7,
{4}1/2,8h[625:156],7,7,
{4}6/5,4h[4:1],3,3,
{4}4/5,2h[4:1],7,3,
{1}1b/8b,
{8}1h[8:3],,,2h[8:3],,,3,,
{8}4,,4,4h[8:3],,,,,
{8}5,,5,4,,6,,6h[8:5],
{4},,,7,
{8}5,,3,3,,1,,8h[8:3],
{4},7,6,5,
{8}4h[8:5],,,,,5,5,5h[8:3],
{4},4,3,2b,
{8}8h[8:3],,,7h[8:3],,,6,,
{8}5,,3,3h[8:3],,,,,
{8}1,,5,4,,7,,7h[8:5],
{4},,,6,
{8}7,,8,1,,2,,3,
{4},4,7,2,
{8}8h[8:5],,,,,1,1,1h[8:3],
{4},8-5[4:1],,,
{4}4h[4:1],5,4,5,
{4}1,8,1h[4:1],8,
{4}1,1/2,1,1/2,
{4}8,7,8h[4:1],7,
{4}6h[4:1],5,6,5,
{4}3,4,3h[4:1],4,
{4}7h[4:1],6,7,6,
{4}4,5,3,6,
{1}1b/8b,
E
&inote_4=(137.0){1},2^7[2:1],
{1}8-4[2:1],
{1}3^6[2:1],
{1}5-1[2:1],
{8}2,2,2-5[4:1],,,,,,
{8}6,6,6-1[4:1],,,,,,
{8}2,3,2-7[4:1]/3-6[4:1],,,,,,
{8}1,8,1-4[4:1]/8-5[4:1],,,,,,
{8}7h[4:1],,,8h[4:1],,,1h[4:1],,
{8},2h[4:1],,,3,6,3,,
{8}2h[4:1],,,1h[4:1],,,8h[4:1],,
{8},7h[4:1],,,6,3,6,,
{8}3,,3,2-5[8:1],,,8,,
{8}8,1-6[8:1],,,8,1,2,,
{8}6,,6,7-4[8:1],,,1,,
{8}1,8-3[8:1],,,1,8,7,,
{8}7-3[8:1],,,8-4[8:1],,,2-6[8:1],,
{8},1-5[8:1],,,8,1,8,,
{8}2-6[8:1],,,1-5[8:1],,,7-3[8:1],,
{8},8-4[8:1],,,1,8,1,,
{8}2h[8:7],,,1,,8,,7-4[8:3],{1},
{8}6h[8:7],,,5,,4,,3-8[8:3],
{8},,,,,,7,8,
{4}1h[1:1],2,8,2,
{4}8h[1:1],7,1,7,
{4}3h[1:1],4,2,4,
{4}6h[4:3],5,7,5,
{8}1,,8,7,,1^4[8:5]/6^1[8:5],,,{1},
{8}8,,1,2,,3^8[8:5]/8^5[8:5],,,{1},
{4}8h[4:1],1h[4:1],8h[4:1],2,
{4}1h[4:1],
{832}8h[4:1],,,,,,,,,,,,,,,,,,,,,,,,,,,,,,,,,,,,,,,,,,,,,,,,,,,,,,,,,,,,,,,,,,,,,,,,,,,,,,,,,,,,,,,,,,,,,,,,,,,,,,,,,,,,,,,,,,,,,,,,,,,,,,,,,,,,,,,,,,,,,,,,,,,,,,,,,,,,,,,,,,,,,,,,,,,,,,,,,,,,,,,,,,,,,,,,,,,,,,,,,,,,,,,
{729}7h[1667:3336],,,,,,,,,,,,,,,,,,,,,,,,,,,,,,,,,,,,,,,,,,,,,,,,,,,,,,,,,,,,,,,,,,,,,,,,,,,,,,,,,,,,,,,,,,,,
{8}1-5[8:7],,,{1},,
{8},1-4[4:1],8-5[4:1],,,,,,
{8},7-2[4:1],3-6[4:1],,,,,,
{8},
{469}1-6[8:1],,,,,,,,,,,,,,,,,,,,,,,,,,,,,,,,,,,,,,,,,,,,,,,,,,,,,,,,,,,
{937}6-3[5000:621],,,,,,,,,,,,,,,,,,,,,,,,,,,,,,,,,,,,,,,,,,,,,,,,,,,,,,,,,,,,,,,,,,,,,,,,,,,,,,,,,,,,,,,,,,,,,,,,,,,,,,,,,,,,,,,,,,,,,,,,,,,,,,,,,,,,,,,,,,,,,,,,,,,,,,,,,,,,,,,,,,,,,,,,,,,,,,,,,,,,,,,,,,,,,,,,,,,,,,,,,,,,,,,,,,,,,,,,,,,,,,,,,,,,,,,,,,,,,,,,,,,,,,,,,,,,,,,,,,,,,,,,,,,,,,,,,,,,,,,,,,,,,,,,,,,,,,,,,,,,,,,,,,,,,,,,,,,,,,,,,,,,,,,,,,,,,,,,,,,,,,,,,,,,,,,,,,,,,,,,,,,,,,,,,,,,,,,,,,,,,,,,,,,,,,,,,,,,,,,,,,,,,,,,,,,,,,,,,,,,,,,,,,,,,,,,,,,,,,,,,,,,,,,,,,,,,,,,,,,,,,,,,,,,,,,,,,,,,,,,,,,,,,,,,,,,,,,,,,,,,,,,,,,,,,,,,,,,,,,,,,,,,,,,,,,,,,,,,,,,,,,,,,,,,,,,,,,,,,,,,,,,,,,,,,,,,,,,,,,,,,,,,,,,,,,,,,,,,,,,,,,,,,,,,,,,,,,,,,,,,,,,,,,,,,,,,,,,,,,,,,,,,,,,,,,,,,,,,,,,,,,,,,,,,,,,,,,,,,,,,,,,,,,,,,,,,,,,,,,,,,
{8},
{781}7-2[8:1],,,,,,,,,,,,,,,,,,,,,,,,,,,,,,,,,,,,,,,,,,,,,,,,,,,,,,,,,,,,,,,,,,,,,,,,,,,,,,,,,,,,,,,,,,,,,,,,,
{313}2-5[5000:629],,,,,,,,,,,,,,,,,,,,,,,,,,,,,,,,,,,,,,,,,,,,,,,,,,,,,,,,,,,,,,,,,,,,,,,,,,,,,,,,,,,,,,,,,,,,,,,,,,,,,,,,,,,,,,,,,,,,,,,,,,,,,,,,,,,,,,,,,,,,,,,,,,,,,,,,,,,,,,,,,,,,,,,,,,,,,,,,,,,,,,,,,,,,,,,,,,,,,,,,,,,,,,,,,,,,,,,,,,,,,,,,,,,,,,,,,,,
{8},8-5[4:1],8,8-3[4:1],,,,,
{8},4-1[4:1],4,4-7[4:1],,,,,
{8}2-7[4:3],,,,,,1-4[8:3],8,{1},
{1}1h[4:3]/2-7[2:1],
{1}8h[4:3]/7-2[2:1],
{8}2^7[2:1],,,2b,,1b,,8b,
{8},,,,,,,3-8[8:3],
{8}3h[4:3],,,,,,,6-1[8:3],
{1}6h[4:3],
{8}3h[2:1]/6h[2:1],,,,,4/5,6/3,4h[8:5]/5h[8:5],{1},
{8}2/8,,1-5[4:1],2/8,,,,,
{8}1/7,,8-4[4:1],1/7,,,,,
{8}1h[4:1],,,1-4[8:1],,1-5[8:1],,1-6[8:3],{1},
{2}8h[4:7]/2^5[8:1],6^3[8:1],
{2}2^5[8:1],6^3[8:1],
{8}2h[2:1]/7h[2:1],,,,,1/8,7/2-7[8:3],3/6-3[8:3],{1},
{16}1h[16:3],,,8,,,8h[16:3],,,7,,,7h[16:3],,,6,
{16},,6h[16:3],,,5,,,5h[16:3],,,4h[16:3],,,5,,
{16}8h[8:3],,,1,,,1h[8:3],,,2,,,2h[8:3],,,3,
{16},,3h[8:3],,,4,,,4h[16:3],,,5h[16:3],,,4,,
{8}2-6[8:1],,,1-5[8:1],,,8-4[8:1],,
{8},7-3[8:1],,,6-2[8:1],,,,
{16}7-3[8:1],,,7,,,8-4[8:1],,,8,,,1-5[8:1],,,1,
{16},,2-6[8:1],,,2,,,3-7[8:1],,,3,,,,,
{16}2,,,1,,,8,,,7,,,6,,,5,
{16},,4,,,3,,,7,,1,,3,,5,
E
&inote_5=(137.0){1},
{16}6,,3,,3,4,,,4,,4,5,,5,4,,
{16}6,,3,,3,4,,,4,,4,5,,5,4,,
{16}6,,3,,3,4,,,4,,4,5,,5,4,,
{16}6,,3,,3,4,,,4,,4,5,,5,4,,
{16}7h[4:1],,3,,3,,,,2h[16:5],,4,,,5,,,
{16}7h[4:1],,3,,3,,,,2h[16:5],,4,,,5,,,
{16}7h[4:1],,3,,3,,,,2h[16:5],,4,,,5,,,
{16}7h[4:1],,3,,3,,,,2h[16:5],,4,,,5,,,
{16}1h[16:3],,,2,,,2h[16:3],,,3,,,3h[16:3],,,4,
{16},,4h[16:3],,,3h[16:3],,,2h[16:3],,,1h[16:3],,,2,,
{16}8h[16:3],,,7,,,7h[16:3],,,6,,,6h[16:3],,,5,
{16},,5h[16:3],,,6h[16:3],,,7h[16:3],,,8h[16:3],,,7,,
{16}1h[16:3],,,3,,,3h[16:3],,,5,,,5h[16:3],,,7,
{16},,7h[16:3],,,5h[16:3],,,3h[16:3],,,1h[16:3],,,3,,
{16}8h[16:3],,,6,,,6h[16:3],,,4,,,4h[16:3],,,2,
{16},,2h[16:3],,,4h[16:3],,,6h[16:3],,,8h[16:3],,,6,,
{16}1h[16:3],,,2h[16:3],,,3h[16:3],,,4h[16:3],,,5h[16:3],,,6h[16:3],
{16},,7h[16:3],,,8h[16:3],,,6h[16:3],,,4h[16:3],,,2,,
{16}8h[16:3],,,7h[16:3],,,6h[16:3],,,5h[16:3],,,4h[16:3],,,3h[16:3],
{16},,2h[16:3],,,1h[16:3],,,3h[16:3],,,5h[16:3],,,7,,
{8}1,,1^6[8:1],1,,8^3[8:1],,,
{16},,6,,,5/6,,,3,,,3/4,,,1^6[8:1],,
{8}1,,8^3[8:1],8,,7,6,5h[4:1],
{16},,,,,3/4,,,5/4,,,6/5,,,4^7[8:1],,
{8}4,,5,5^2[8:1],,,,6h[8:5]/3h[8:5],
{8},,,,,,6-1[4:1],6h[8:3],
{8},,,8/4,,1^6[8:1]/5^2[8:1],,,
{16},,,,3/6,,,,5,,4,5,,6/3,,,
{8}1,,1^6[8:1],1,,8^3[8:1],,,
{16},,6,,,6/5,,,3,,,4/3,,,1^6[8:1],,
{8}1,,8^3[8:1],8,,7,6,5h[4:1],
{16},,,,,6/5,,,5/4,,,3/4,,,3,,
{4}2h[4:1],1h[4:1],8h[4:1],7h[4:1],
{8}8-5[8:1],,8-4[8:1],,8,8^5[4:1],,,
{16},,,,6/8,,,,1/3,,,6/8,,,,,
{16},,1/3,,,1/3,,,6/8,,,1/3,,,,,
{8},8h[4:1],7,6,,1h[4:1],2,3,
{8},8h[4:1],7,6h[4:1],5,4h[4:1],3,2,
{16}8^5[8:1],,8,,,,2,,2,,4,3,,3,4,,
{16}1^4[8:1],,1,,,,7,,7,,6,5,,5,6,7,
{8},8h[4:1],6,5,,2h[4:1],3,4,
{8},5h[4:1],8,3h[4:1],,1h[4:1],4,6-1[8:5],{1},
{2}1b,
{641}1,,,,,,,,,,,,,,,,,,,,
{639}2,,,,,,,,,,,,,,,,,,,,3,,,,,,,,,,,,,,,,,,,,
{641}4,,,,,,,,,,,,,,,,,,,,5,,,,,,,,,,,,,,,,,,,,
{639}6,,,,,,,,,,,,,,,,,,,,7,,,,,,,,,,,,,,,,,,,,
{641}8,,,,,,,,,,,,,,,,,,,,
{4}1,
{4}1h[4:1],
{999}8-3[4:1],,,,,,,,,,,,,,,,,,,,,,,,,,,,,,,,,,,,,,,,,,,,,,,,,,,,,,,,,,,,,,,,,,,,,,,,,,,,,,,,,,,,,,,,,,,,,,,,,,,,,,,,,,,,,,,,,,,,,,,,,,,,,
{8}8h[1251:469],,,,1/3,
{8}2/4,,8/6,5/7,,,,5-2[8:1],
{8}5,,4-7[8:1],4,,8^3[4:1],,,
{16},,7,,6,,5,,4,,4,5,,5,6,,
{8}5h[4:1],,6,6h[4:1],,7h[4:1],,8h[8:3],
{4},1-4[8:1],1-5[8:1],1^4[8:1],
{8},,,,,8/7,1/6,5/2,
{16},,3,,4,,5,,6,,5,6,5,,6,,
{8}8h[4:1],,1-6[10000:2499],1h[1251:469],,,,8/6,
{8}5/7,,3/1,2/4,,,,4-7[8:1],
{8}4,,5-2[8:1],5,,1^6[4:1],,,
{16},,2,,3,,4,,5,,5,4,,4,3,,
{8}4h[4:1],,3,3h[4:1],,2h[4:1],,1h[8:3],
{4},8-5[8:1],8-4[8:1],8^5[8:1],
{8},,,,,2/1,3/8,7/4,
{8},7,6,5,4^1[8:1],4,,,
{16}7,8,7,8,,,2,1,2,1,,,6,5,6,5,
{16},,3,4,3,4,,,1,8,1,8,,,,,
{16}8,7,6,5,,,1,2,3,4,,,1,8,7,6,
{16},,8,1,2,3,,,2,1,8,7,,,,,
{16}1,2,3,8,7,6,1,2,3,8,7,6,2,3,4,7,
{16}6,5,2,3,4,7,6,5,1,2,3,8,7,6,5,,
{16}8,1,2,1,8,7,8,1,2,1,8,7,5,4,3,4,
{16}5,6,5,4,3,4,5,6,8,1,2,1,8,7,6,,
{16}1h[16:3],,,3h[16:3],,,5h[16:3],,,7h[16:3],,,8h[16:3],,,6h[16:3],
{16},,4h[16:3],,,2h[16:3],,,1h[16:3],,,8-4[8:1],,,,,,,
E
